#TITLE:the HAMPSTER DANCE;
#SUBTITLE:;
#ARTIST:Hampton The Hampster;
#TITLETRANSLIT:;
#SUBTITLETRANSLIT:;
#ARTISTTRANSLIT:;
#CREDIT:;
#BANNER:hampsterdance-banner.png;
#BACKGROUND:hampsterdance-bg.png;
#LYRICSPATH:;
#CDTITLE:;
#MUSIC:hampster dance.mp3;
#MUSICLENGTH:100.649;
#OFFSET:0.040;
#SAMPLESTART:66.085;
#SAMPLELENGTH:12.000;
#SELECTABLE:YES;
#BPMS:0.000=135.940;
#STOPS:150.000=0.880
;
#BGCHANGES:;
#FIRSTBEAT:20.000;

#LASTBEAT:220.000;

#SONGFILENAME:Songs/ERICth MIX 2nd Style/Hampster Dance/hampster.sm;

#HASMUSIC:1;

#HASBANNER:1;


//---------------dance-single - MANIAC----------------
#NOTES:
     dance-single:
     MANIAC:
     hard:
     10:
     0.555,0.574,0.149,0.219,0.452,354.000,15.000,22.000,0.000,0.000:




0000
0000
0000
0000
,
0000
0000
0000
0000
,
0000
0000
0000
0000
,
0000
0000
0000
0000
,
0000
0000
0000
0000
,
0001
0000
0100
0000
0001
0000
0100
0001
0000
0001
0000
0000
0000
0000
0010
0001
,
0010
0001
0010
0000
1000
0000
1000
0000
0200
0000
0000
0000
0300
0000
0000
0000
,
0000
0000
1000
0000
0000
0000
0001
0000
0100
0010
0100
0010
0000
0000
0000
0001
,
1000
1000
0010
0010
0220
0000
0330
0000
,
0001
0000
0100
0000
0001
0000
0100
0001
0000
0001
0000
0000
0000
0000
0010
0001
,
0010
0001
0010
0000
1000
0000
1000
0000
0200
0000
0000
0000
0300
0000
0000
0000
,
0000
0000
1000
0000
0000
0000
0001
0000
0100
0010
0100
0010
0000
0000
0000
0001
,
1000
1000
0010
0010
0220
0000
0000
0000
,
0000
0330
1000
0001
,
1001
0000
0000
1001
0000
0000
0001
0100
0001
0000
0010
0000
1000
0000
0001
0000
,
0100
0000
0000
0100
0000
0000
1000
0010
1000
0000
0100
0000
0001
0000
0100
0000
,
1000
0000
0000
1000
0000
0000
0100
0010
0100
0010
0100
0000
0100
1000
0100
0000
,
0101
0000
0000
0101
0000
0000
0010
1000
0100
0000
0100
0000
0001
0000
0001
0000
,
0100
0000
0000
1000
0000
0000
1000
0010
1000
0000
1000
0000
0010
0000
0010
0000
,
0001
0000
0000
0010
0000
0000
1000
0001
1000
0001
1000
0000
0100
0000
0100
0000
,
0010
0000
0000
0010
0000
0000
0100
0001
0100
0001
0100
0000
1000
0010
1000
0000
,
2020
3030
1000
0001
,
1001
0000
0000
1001
0000
0000
0001
0100
0001
0000
0010
0000
1000
0000
0001
0000
,
0100
0000
0000
0100
0000
0000
1000
0010
1000
0000
0100
0000
0001
0000
0100
0000
,
1000
0000
0000
1000
0000
0000
0100
0010
0100
0010
0100
0000
0100
1000
0100
0000
,
0101
0000
0000
0101
0000
0000
0010
1000
0100
0000
0100
0000
0001
0000
0001
0000
,
0100
0000
0000
1000
0000
0000
1000
0010
1000
0000
1000
0000
0010
0000
0010
0000
,
0001
0000
0000
0010
0000
0000
1000
0001
1000
0001
1000
0000
0100
0000
0100
0000
,
0010
0000
0000
0010
0000
0000
0100
0001
0100
0001
0100
0000
1000
0010
1000
0000
,
2020
0000
3030
0000
0010
1000
0001
1000
,
0100
0001
0100
0010
0100
1000
0010
0001
,
0010
1000
0100
1000
0100
0010
0001
0010
,
0001
1000
0001
0100
0010
1000
0001
0100
,
0010
0100
0010
0000
1000
0001
1000
0001
,
0100
0001
0100
0001
0010
0001
0010
0001
,
1000
0000
0000
0000
1000
0100
0001
0100
,
1000
0100
0001
0100
1000
0010
0001
0010
,
1000
0000
0010
0100
0000
0000
0000
0000
0110
0000
0000
0000
0000
0000
0000
0000
,
0001
0000
0100
0000
0001
0000
0100
0001
0000
0001
0000
0000
0000
0000
0010
0001
,
0010
0001
0010
0000
1000
0000
1000
0000
0200
0000
0000
0000
0300
0000
0000
0000
,
0000
0000
1000
0000
0000
0000
0001
0000
0100
0010
0100
0010
0000
0000
0000
0001
,
1000
1000
0010
0010
0220
0000
0330
0000
,
0001
0000
0100
0000
0001
0000
0100
0001
0000
0001
0000
0000
0000
0000
0010
0001
,
0010
0001
0010
0000
1000
0000
1000
0000
0200
0000
0000
0000
0300
0000
0000
0000
,
0000
0000
1000
0000
0000
0000
0001
0000
0100
0010
0100
0010
0000
0000
0000
0001
,
1000
1000
0010
0010
0220
0000
0000
0000
,
0330
0000
0000
0000
0000
0000
0001
1000
0001
0000
0100
0000
0001
0000
0200
0010
,
0000
0000
0000
0000
0000
0000
0310
0000
0000
0000
0000
0000
0000
0000
0000
0000
0000
0000
2000
0000
0000
0000
0000
0000
0000
0000
0000
0000
0000
0000
3001
0000
0000
0000
0000
0000
1000
0000
0000
0000
0001
0000
0000
0000
0000
1000
0000
0000
,
0000
0000
0000
0000
0010
0000
0000
0000
0000
0000
1000
0010
1000
0010
0000
0000
,
0100
0010
0000
0100
0000
0100
0001
1000
0001
1000
0001
1000
0001
0000
1000
0000
,
2000
0000
0000
0000
3000
0000
0001
1000
0001
0000
0100
0000
0001
0000
0200
0010
,
0000
0000
0000
0000
0000
0000
0310
0000
0000
0000
0000
0000
0000
0000
0000
0000
0000
0000
2000
0000
0000
0000
0000
0000
0000
0000
0000
0000
0000
0000
3001
0000
0000
0000
0000
0000
1000
0000
0000
0000
0001
0000
0000
0000
0000
1000
0000
0000
,
0000
0000
0000
0000
0010
0000
0000
0000
0000
0000
1000
0010
1000
0010
0000
0000
,
0100
0010
0000
0100
0000
0100
0001
1000
0001
1000
0001
1000
0001
0000
1000
0000
,
2000
0000
0000
0000
,
3000
0000
0000
0000;

//---------------dance-single - ANOTHER----------------
#NOTES:
     dance-single:
     ANOTHER:
     medium:
     6:
     0.387,0.464,0.070,0.020,0.000,264.000,7.000,2.000,0.000,1.000:









0000
0000
0000
0000
,
0000
0000
0000
0000
,
0000
0000
0000
0000
,
0000
0000
0000
0000
,
0000
0000
0000
0000
,
0001
1000
0001
1000
0100
0000
0000
0000
,
0010
1000
0010
1000
0001
0000
0000
0000
,
0100
0000
0010
0000
1000
0100
1000
0000
,
0010
1000
0001
0010
0001
0000
0000
0000
,
0100
1000
0010
0100
0010
1000
0001
0000
,
0001
0010
0001
0010
0100
0000
0100
0000
,
0000
0000
0010
1000
0001
1000
0100
0000
,
0100
0010
0100
0010
0001
0000
0000
0000
,
0000
0000
1000
0010
,
1000
0001
1000
0000
0001
0001
0100
0100
,
0001
0000
0001
0000
0001
0001
0100
0100
,
0010
0000
0010
0000
1000
0010
1000
0100
,
1000
0000
0100
0000
0010
0010
1000
1000
,
0100
0000
0100
0000
0010
0010
0100
0100
,
0001
0000
1000
0000
0001
1000
0001
1000
,
0010
0000
0010
0000
0100
0001
1000
0100
,
0010
0100
0010
1000
,
0001
0000
0001
0100
0001
0000
0110
0000
,
1000
0001
0100
0010
,
1000
0000
0001
0000
0010
0001
0010
0001
,
0100
0001
1000
0010
,
0100
0001
1000
0010
,
0100
0000
0001
0000
1000
0100
1000
0010
,
1000
0001
0010
0001
0100
0001
1000
0100
,
0001
0100
1000
0000
0000
0010
0100
0000
,
1000
0010
1000
0100
,
1000
0010
0100
0001
,
0010
0001
0010
0000
0001
0000
0000
0000
,
1001
1001
1001
0000
0010
0000
1000
0000
,
0100
0010
0000
0100
,
0010
0100
0010
0000
0001
0000
1000
0000
,
0001
0010
0001
0000
0100
1000
0010
0000
,
0010
0100
0001
0000
2002
0000
0000
0000
,
0010
1000
0001
1000
,
0010
1000
0100
1000
0001
0000
0000
0000
,
0000
0100
0000
0010
0000
0100
0000
0000
,
1000
0000
0010
1000
0100
0000
0000
0000
,
0001
0010
0001
1000
0100
1000
0010
0000
,
0001
1000
0010
1000
1010
0000
0000
0000
,
0000
0001
0000
1000
0010
1000
0100
1000
,
0010
1000
0100
0010
0001
0000
0001
0000
,
0001
0001
1000
0001
,
0100
0010
1000
0001
1000
0010
0100
0001
,
0010
0100
0010
0001
1000
0010
0100
0010
,
1000
0001
0010
0001
0100
0001
0010
0001
,
0100
0001
1000
0100
0001
0100
1000
0010
,
1000
0001
1000
0000
0001
0000
1000
0001
,
1000
0000
0010
0000
0000
0010
0000
0100
,
0100
0010
0010
0000
0010
0000
1000
0100
,
1000
1000
1000
1000
,
1001
0000
0000
0000;

//---------------dance-single - BASIC----------------
#NOTES:
     dance-single:
     BASIC:
     easy:
     4:
     0.285,0.355,0.209,0.040,0.000,176.000,21.000,4.000,0.000,0.000:



0000
0000
0000
0000
,
0000
0000
0000
0000
,
0000
0000
0000
0000
,
0000
0000
0000
0000
,
0000
0000
0000
0000
,
0100
0100
0010
0010
,
1000
1000
0001
0001
,
1001
0100
1001
0010
,
0100
0100
0110
0000
,
0001
1000
0010
1000
,
0100
1000
1001
0100
,
0100
0010
0110
0010
,
0100
0010
0110
0000
,
0002
0000
0103
1000
,
0100
0010
1000
0010
,
0001
0100
0010
1000
,
0100
0001
0100
0100
,
0010
0010
0001
0010
,
0100
0110
0001
1000
,
0010
1010
0001
0100
,
0001
0101
0010
0010
,
0010
0010
0100
1000
,
0010
0001
0000
1000
,
0100
0001
0010
0001
,
0011
0011
0100
1000
,
1100
1100
0010
0100
,
0001
1000
0100
0010
,
0100
0001
1000
0100
,
0010
1000
0010
1000
,
0100
0100
0010
0000
,
0010
0000
0100
0000
,
0100
0001
0100
0000
,
1000
0000
0010
0000
,
0100
0001
0000
0001
,
0000
0001
0000
0010
,
1000
0001
0100
0000
,
0100
0000
1000
0001
,
1000
0001
0011
0000
,
1100
0010
0100
0010
,
0100
0010
0001
1000
,
0010
0001
0100
1000
,
0001
0010
0001
0001
,
0011
1100
0110
0110
,
0001
1000
0100
0100
,
1000
0001
0101
0101
,
0010
1000
0200
0000
,
0000
0300
0001
0010
,
1000
0100
1000
0010
,
0001
0010
0100
0010
,
0001
1000
0100
0010
,
1000
0001
0100
0010
,
0100
0010
0200
0000
,
0000
0000
1300
1000
,
1000
1000
0100
0010
,
0002
0000
0000
0000
,
1003
0000
0000
0000;
